Dabangg 3 2019 Hindi 1080p 10bit AMZN WEBRip DD5.1 x265 ESub - Mo...

seeders: 121
leechers: 41
updated:
Added by uploader6969 in Other


ᕦ( ▨̅ ͜▨̅ )ᕥ SPECIAL DEAL - OFFER ᕦ( ▨̅ ͜▨̅ )ᕥ
strongly advises you to use Nord while downloading torrents.
Nord is the safest on the market, and the fastest as well.
No IP Log is saved using Nord, avoid other providers and choose the safest one.
Click here and buy Nord it's on rebates today!
We were able to verify your IP: 3.218.67.1, country: United States.
If we can do that, others can too, protect your privacy with Nord.
is trying the best for you!
ᕦ( ▨̅ ͜▨̅ )ᕥ SPECIAL DEAL - OFFER ᕦ( ▨̅ ͜▨̅ )ᕥ


Description

www.MoviePirate.Site
 
Telegram Link 
 
****************************
_____ _ _ 
|_ _|___ | || | _ _ 
| | / _ \| || || | | |
| || __/| || || |_| |
|_| \___||_||_| \__, |
|___/ 
****************************
Team Telly Proudly Presents
****************************
------------------
|Media Info|
------------------
General
Unique ID                                : 69750390608087372791635467082528902252 (0x34796FC464D2A95905ABE975C612CC6C)
Complete name                            : C:\Users\MoviePirate\Downloads\File\Dabangg 2019 Hindi 1080p 10bit AMZN WEBRip DD5.1 x265 ESub - MoviePirate - Telly.mkv
Format                                   : Matroska
Format version                           : Version 4
File size                                : 2.73 GiB
Duration                                 : 2 h 28 min
Overall bit rate                         : 2 635 kb/s
Encoded date                             : UTC 2020-02-15 04:00:17
Writing application                      : mkvmerge v39.0.0 ('In The Waiting Line') 64-bit
Writing library                          : libebml v1.3.9 + libmatroska v1.5.2
Video
ID                                       : 1
Format                                   : HEVC
Format/Info                              : High Efficiency Video Coding
Format profile                           : Main [email protected]@High
Codec ID                                 : V_MPEGH/ISO/HEVC
Duration                                 : 2 h 28 min
Bit rate                                 : 2 409 kb/s
Width                                    : 1 920 pixels
Height                                   : 800 pixels
Display aspect ratio                     : 2.40:1
Frame rate mode                          : Constant
Frame rate                               : 24.000 FPS
Color space                              : YUV
Chroma subsampling                       : 4:2:0
Bit depth                                : 10 bits
Bits/(Pixel*Frame)                       : 0.065
Stream size                              : 2.50 GiB (91%)
Writing library                          : x265 3.2+9-971180b100f8:[Windows][GCC 9.2.0][64 bit] 10bit
Encoding settings                        : cpuid=1111039 / frame-threads=5 / numa-pools=32 / wpp / no-pmode / no-pme / no-psnr / no-ssim / log-level=2 / input-csp=1 / input-res=1920x800 / interlace=0 / total-frames=213623 / level-idc=0 / high-tier=1 / uhd-bd=0 / ref=2 / no-allow-non-conformance / no-repeat-headers / annexb / no-aud / no-hrd / info / hash=0 / no-temporal-layers / open-gop / min-keyint=24 / keyint=250 / gop-lookahead=0 / bframes=4 / b-adapt=0 / b-pyramid / bframe-bias=0 / rc-lookahead=15 / lookahead-slices=5 / scenecut=40 / radl=0 / no-splice / no-intra-refresh / ctu=64 / min-cu-size=8 / no-rect / no-amp / max-tu-size=32 / tu-inter-depth=1 / tu-intra-depth=1 / limit-tu=0 / rdoq-level=0 / dynamic-rd=0.00 / no-ssim-rd / signhide / no-tskip / nr-intra=0 / nr-inter=0 / no-constrained-intra / strong-intra-smoothing / max-merge=2 / limit-refs=3 / no-limit-modes / me=1 / subme=2 / merange=57 / temporal-mvp / no-frame-dup / no-hme / weightp / no-weightb / no-analyze-src-pics / deblock=0:0 / sao / no-sao-non-deblock / rd=2 / selective-sao=4 / early-skip / rskip / fast-intra / no-tskip-fast / no-cu-lossless / no-b-intra / no-splitrd-skip / rdpenalty=0 / psy-rd=2.00 / psy-rdoq=0.00 / no-rd-refine / no-lossless / cbqpoffs=0 / crqpoffs=0 / rc=abr / bitrate=2400 / qcomp=0.60 / qpstep=4 / stats-write=0 / stats-read=0 / vbv-maxrate=62500 / vbv-bufsize=78125 / vbv-init=0.9 / ipratio=1.40 / pbratio=1.30 / aq-mode=2 / aq-strength=1.00 / cutree / zone-count=0 / no-strict-cbr / qg-size=32 / no-rc-grain / qpmax=69 / qpmin=0 / no-const-vbv / sar=0 / overscan=0 / videoformat=5 / range=0 / colorprim=2 / transfer=2 / colormatrix=2 / chromaloc=0 / display-window=0 / cll=0,0 / min-luma=0 / max-luma=1023 / log2-max-poc-lsb=8 / vui-timing-info / vui-hrd-info / slices=1 / no-opt-qp-pps / no-opt-ref-list-length-pps / no-multi-pass-opt-rps / scenecut-bias=0.05 / no-opt-cu-delta-qp / no-aq-motion / no-hdr / no-hdr-opt / no-dhdr10-opt / no-idr-recovery-sei / analysis-reuse-level=5 / scale-factor=0 / refine-intra=0 / refine-inter=0 / refine-mv=1 / refine-ctu-distortion=0 / no-limit-sao / ctu-info=0 / no-lowpass-dct / refine-analysis-type=0 / copy-pic=1 / max-ausize-factor=1.0 / no-dynamic-refine / no-single-sei / no-hevc-aq / no-svt / no-field / qp-adaptation-range=1.00
Default                                  : Yes
Forced                                   : No
Audio
ID                                       : 2
Format                                   : AC-3
Format/Info                              : Audio Coding 3
Commercial name                          : Dolby Digital
Codec ID                                 : A_AC3
Duration                                 : 2 h 28 min
Bit rate mode                            : Constant
Bit rate                                 : 224 kb/s
Channel(s)                               : 6 channels
Channel layout                           : L R C LFE Ls Rs
Sampling rate                            : 48.0 kHz
Frame rate                               : 31.250 FPS (1536 SPF)
Compression mode                         : Lossy
Stream size                              : 238 MiB (9%)
Title                                    : Hindi
Language                                 : Hindi
Service kind                             : Complete Main
Default                                  : No
Forced                                   : No
Text
ID                                       : 3
Format                                   : UTF-8
Codec ID                                 : S_TEXT/UTF8
Codec ID/Info                            : UTF-8 Plain Text
Duration                                 : 2 h 21 min
Bit rate                                 : 41 b/s
Count of elements                        : 1611
Stream size                              : 43.3 KiB (0%)
Title                                    : English sdh
Language                                 : English
Default                                  : No
Forced                                   : No
Menu
00:00:00.000                             : en:Film Certification
00:00:05.000                             : en:Disclaimer
00:00:18.000                             : en:Acknowledgement
00:00:26.000                             : en:Studio Logo
00:01:20.000                             : en:Opening Credits
00:03:23.000                             : en:Title Sequence
00:03:34.000                             : en:Scene 7
00:04:15.000                             : en:Scene 8
00:11:42.000                             : en:Scene 9
00:15:01.000                             : en:Scene 10
00:15:45.000                             : en:Scene 11
00:16:45.000                             : en:Scene 12
00:22:02.000                             : en:Scene 13
00:30:17.000                             : en:Scene 14
00:34:07.000                             : en:Scene 15
00:46:07.000                             : en:Scene 16
00:53:34.000                             : en:Scene 17
00:55:04.000                             : en:Scene 18
01:09:12.000                             : en:Scene 19
01:12:34.000                             : en:Scene 20
01:18:02.000                             : en:Scene 21
01:20:53.000                             : en:Scene 22
01:26:20.000                             : en:Scene 23
01:37:28.000                             : en:Scene 24
01:41:00.000                             : en:Scene 25
01:50:51.000                             : en:Scene 26
02:00:24.000                             : en:Scene 27
02:08:12.000                             : en:Scene 28
02:22:57.000                             : en:End Credits
****************************
Telly.cc
Team Telly Official Site
****************************
www.MoviePirate.Site 
Enjoy Exclusives Content only on Telly.cc
 
 
 
 
 
 
 
 
 
 

Sharing Widget


Download torrent
Size: 2.7 GB
seeders:121
leechers:41
Dabangg 3 2019 Hindi 1080p 10bit AMZN WEBRip DD5.1 x265 ESub - Mo... - (2899102924 Bytes)



To share this torrent use the code below and insert it into comments, status messages, forum posts or your signature.

Torrent: Dabangg 3 2019 Hindi 1080p 10bit AMZN WEBRip DD5.1 x265 ESub - Mo...

Trackers

tracker name
udp://tracker.coppersurfer.tk:6969/announce
udp://tracker.leechers-paradise.org:6969/announce
udp://open.stealth.si:80/announce
udp://tracker.internetwarriors.net:1337/announce
udp://tracker.openbittorrent.com:80/announce
udp://explodie.org:6969/announce
udp://tracker.opentrackr.org:1337/announce
udp://tracker.tiny-vps.com:6969/announce
udp://open.demonii.si:1337/announce
udp://tracker.torrent.eu.org:451/announce
udp://tracker.pirateparty.gr:6969/announce
udp://ipv4.tracker.harry.lu:80/announce
udp://tracker.cyberia.is:6969/announce
udp://9.rarbg.to:2710/announce
udp://tracker.zer0day.to:1337/announce
udp://tracker.leechers-paradise.org:6969/announce
udp://coppersurfer.tk:6969/announce
µTorrent compatible trackers list

Locations

name
KickassTorrents
Torrent hash: 754A920658D7DAB9CE5A7DE12B3C680E5FACB563

ᕦ( ▨̅ ͜▨̅ )ᕥ SPECIAL DEAL - OFFER ᕦ( ▨̅ ͜▨̅ )ᕥ
strongly advises you to use Nord while downloading torrents.
Nord is the safest on the market, and the fastest as well.
No IP Log is saved using Nord, avoid other providers and choose the safest one.
Click here and buy Nord it's on rebates today!
We were able to verify your IP: 3.218.67.1, country: United States.
If we can do that, others can too, protect your privacy with Nord.
is trying the best for you!
ᕦ( ▨̅ ͜▨̅ )ᕥ SPECIAL DEAL - OFFER ᕦ( ▨̅ ͜▨̅ )ᕥ


All Comments

*comments box temporarily disabled*
Report a bug